La entrega (The Drop) (2014) [BDRip m720p] [Castellano]






'La Entrega' sigue las huellas del solitario camarero Bob Saginowski (Tom Hardy) a través de un programa clandestino del submundo de los bares de Brooklyn –llamado "buzones de dinero"–, cuyo fin es canalizar dinero en efectivo hacia gánsteres locales. Bajo la pesada mano de su patrono y primo Marv (James Gandolfini), Bob se ve metido en medio de un robo que sale mal y enredado en una investigación que hurga muy hondo en el pasado de un barrio en el que amigos, familias y enemigos trabajan juntos para ganarse la vida… cueste lo que cueste.




Título: La entrega (The Drop)
Título original: The Drop
País: USA
Estreno en USA: 12/09/2014
Estreno en España: 26/09/2014
Productora: Fox Searchlight, Chernin Entertainment
Director: Michael Roskam
Guión: Michael Roskam, Dennis Lehane
Reparto: Tom Hardy, Noomi Rapace, James Gandolfini, Erin Darke, Elizabeth Rodriguez, Matthias Schoenaerts, James Frecheville, Jeremy Bobb, Chris Sullivan, John Ortiz, Patricia Squire, James Colby, Morgan Spector, Michael Esper, Michael Aronov
Calificación: No recomendada para menores de 16 años
Género: Thriller. Drama | Crimen. Mafia

Formato: Matroska BDRip microHD 720p
Tamaño: 2,97GIB
Resolución: 1280x534
Audio 1: AC3 5.1 @448 Kbps Castellano
Audio 2: AC3 5.1 @448 Kbps Inglés
Subs: Español de España e Ingles. Español de España Forzados.
Descomprimir: WinRar

MEDIA INFO

Format : Matroska
Format version : Version 2
File size : 2.97 GiB
Duration : 1h 46mn
Overall bit rate : 3 990 Kbps
Encoded date : UTC 2015-01-16 08:11:19
Writing application : mkvmerge v5.3.0 ('I could have danced') built on Feb 9 2012 10:38:07
Writing library : libebml v1.2.3 + libmatroska v1.3.0

Video
ID : 1
Format : AVC
Format/Info : Advanced Video Codec
Format profile : High@L4.1
Format settings, CABAC : Yes
Format settings, ReFrames : 12 frames
Codec ID : V_MPEG4/ISO/AVC
Duration : 1h 46mn
Bit rate : 3 100 Kbps
Width : 1 280 pixels
Height : 534 pixels
Display aspect ratio : 2.40:1
Frame rate mode : Constant
Frame rate : 23.976 fps
Color space : YUV
Chroma subsampling : 4:2:0
Bit depth : 8 bits
Scan type : Progressive
Bits/(Pixel*Frame) : 0.189
Stream size : 2.25 GiB (76%)
Writing library : x264 core 142 r2491 24e4fed
Encoding settings : cabac=1 / ref=12 / deblock=1:-3:-3 / analyse=0x3:0x133 / me=umh / subme=10 / psy=1 / psy_rd=1.00:0.07 / mixed_ref=1 / me_range=64 / chroma_me=1 / trellis=2 / 8x8dct=1 / cqm=0 / deadzone=21,11 / fast_pskip=1 / chroma_qp_offset=-3 / threads=12 / lookahead_threads=3 / sliced_threads=0 / nr=0 / decimate=1 / interlaced=0 / bluray_compat=0 / constrained_intra=0 / bframes=13 / b_pyramid=2 / b_adapt=2 / b_bias=0 / direct=3 / weightb=1 / open_gop=0 / weightp=2 / keyint=240 / keyint_min=23 / scenecut=40 / intra_refresh=0 / rc_lookahead=240 / rc=2pass / mbtree=1 / bitrate=3100 / ratetol=1.0 / qcomp=0.60 / qpmin=0 / qpmax=69 / qpstep=4 / cplxblur=20.0 / qblur=0.5 / vbv_maxrate=40000 / vbv_bufsize=30000 / nal_hrd=none / filler=0 / ip_ratio=1.30 / aq=1:1.00
Default : Yes
Forced : No
Color primaries : BT.709
Transfer characteristics : BT.709
Matrix coefficients : BT.709

Audio #1
ID : 2
Format : AC-3
Format/Info : Audio Coding 3
Mode extension : CM (complete main)
Format settings, Endianness : Big
Codec ID : A_AC3
Duration : 1h 46mn
Bit rate mode : Constant
Bit rate : 448 Kbps
Channel(s) : 6 channels
Channel positions : Front: L C R, Side: L R, LFE
Sampling rate : 48.0 KHz
Bit depth : 16 bits
Compression mode : Lossy
Stream size : 342 MiB (11%)
Title : Castellano AC3 5.1
Language : Spanish
Default : No
Forced : Yes

Audio #2
ID : 3
Format : AC-3
Format/Info : Audio Coding 3
Mode extension : CM (complete main)
Format settings, Endianness : Big
Codec ID : A_AC3
Duration : 1h 46mn
Bit rate mode : Constant
Bit rate : 448 Kbps
Channel(s) : 6 channels
Channel positions : Front: L C R, Side: L R, LFE
Sampling rate : 48.0 KHz
Bit depth : 16 bits
Compression mode : Lossy
Stream size : 342 MiB (11%)
Title : English
Language : English
Default : No
Forced : No

Text #1
ID : 4
Format : UTF-8
Codec ID : S_TEXT/UTF8
Codec ID/Info : UTF-8 Plain Text
Title : Forzados.
Language : Spanish
Default : Yes
Forced : Yes

Text #2
ID : 5
Format : UTF-8
Codec ID : S_TEXT/UTF8
Codec ID/Info : UTF-8 Plain Text
Language : Spanish
Default : No
Forced : No

Text #3
ID : 6
Format : UTF-8
Codec ID : S_TEXT/UTF8
Codec ID/Info : UTF-8 Plain Text
Language : English
Default : No
Forced : No

Menu
00:00:00.000 : en:00:00:00.000
00:02:25.354 : en:00:02:25.354
00:05:59.859 : en:00:05:59.859
00:08:09.155 : en:00:08:09.155
00:11:34.777 : en:00:11:34.777
00:13:48.745 : en:00:13:48.745
00:17:28.923 : en:00:17:28.923
00:21:37.213 : en:00:21:37.213
00:25:40.831 : en:00:25:40.831
00:27:53.463 : en:00:27:53.463
00:32:02.337 : en:00:32:02.337
00:36:19.552 : en:00:36:19.552
00:38:15.752 : en:00:38:15.752
00:40:35.141 : en:00:40:35.141
00:44:05.476 : en:00:44:05.476
00:46:47.471 : en:00:46:47.471
00:48:42.711 : en:00:48:42.711
00:52:50.584 : en:00:52:50.584
00:56:28.176 : en:00:56:28.176
01:01:40.530 : en:01:01:40.530
01:05:43.106 : en:01:05:43.106
01:07:36.803 : en:01:07:36.803
01:11:13.519 : en:01:11:13.519
01:12:32.598 : en:01:12:32.598
01:15:09.505 : en:01:15:09.505
01:21:11.742 : en:01:21:11.742
01:24:10.087 : en:01:24:10.087
01:28:27.260 : en:01:28:27.260
01:30:51.404 : en:01:30:51.404
01:34:54.480 : en:01:34:54.480
01:39:00.893 : en:01:39:00.893
01:41:16.237 : en:01:41:16.237













1 Link



http://uploaded.net/file/s8qs28pc/Entr3g4.BDR.m720p.flash.rar



Links Por Partes



http://uploaded.net/file/r3kc25u1/Entr3g4.BDR.m720p-flash.part1.rar
Para poder ver los links necesitas estar Registrado . O.. ya tienes cuenta? Logueate!

Para poder ver los links necesitas estar Registrado . O.. ya tienes cuenta? Logueate!

Para poder ver los links necesitas estar Registrado . O.. ya tienes cuenta? Logueate!



[size=2]Mixto - Uptobox, 1Fichier (Uploaded 110 MB Aproximadamente)[/size]


[img]http://istoreimg.com/upload/big/2014/10/14/543c6afa0797a.png[/img] [img]http://istoreimg.com/upload/big/2014/10/14/543c6af974999.png[/img]

[code]http://uptobox.com/hd68yk3xgm8l
Para poder ver los links necesitas estar Registrado . O.. ya tienes cuenta? Logueate!

Para poder ver los links necesitas estar Registrado . O.. ya tienes cuenta? Logueate!

Para poder ver los links necesitas estar Registrado . O.. ya tienes cuenta? Logueate!




[img]http://istoreimg.com/upload/big/2014/10/14/543c6af53f66d.png[/img] [img]http://istoreimg.com/upload/big/2014/10/14/543c6af974999.png[/img]

[code]https://1fichier.com/?0z01wi4kpo
Para poder ver los links necesitas estar Registrado . O.. ya tienes cuenta? Logueate!

Para poder ver los links necesitas estar Registrado . O.. ya tienes cuenta? Logueate!

Para poder ver los links necesitas estar Registrado . O.. ya tienes cuenta? Logueate!




[size=4]Respaldo Por Si Los Links De Arriba Son Eliminados, Siempre Activos[/size]

[img]http://istoreimg.com/upload/big/2014/10/14/543c6afa0797a.png[/img] [img]http://istoreimg.com/upload/big/2014/10/14/543c6af974999.png[/img]

[code]http://www.relink.us/f/7845e612b44b9ed2ab3fa66b51f869



Opciones
Estadísticas
Creado 16.01.2015 a las 17:35 hs
Categoría TV, Peliculas y series
  • 4
    Medallas
  • 0
    Favoritos
  • 315
    Visitas
  • 0
    Puntos
  • 0
    Seguidores

Para poder comentar necesitas estar Registrado. O.. ya tienes usuario? Logueate!
Autor del post
Ver perfil de flash flash
Hombre Bronze Member  Mensaje
290 75 0
Medallas
4
Recibenos en tu Correo!
rss

Tags
Posts relacionados