La entrega (The Drop) (2014) [BDRip m1080p] [Castellano]






'La Entrega' sigue las huellas del solitario camarero Bob Saginowski (Tom Hardy) a través de un programa clandestino del submundo de los bares de Brooklyn –llamado "buzones de dinero"–, cuyo fin es canalizar dinero en efectivo hacia gánsteres locales. Bajo la pesada mano de su patrono y primo Marv (James Gandolfini), Bob se ve metido en medio de un robo que sale mal y enredado en una investigación que hurga muy hondo en el pasado de un barrio en el que amigos, familias y enemigos trabajan juntos para ganarse la vida… cueste lo que cueste.




Título: La entrega (The Drop)
Título original: The Drop
País: USA
Estreno en USA: 12/09/2014
Estreno en España: 26/09/2014
Productora: Fox Searchlight, Chernin Entertainment
Director: Michael Roskam
Guión: Michael Roskam, Dennis Lehane
Reparto: Tom Hardy, Noomi Rapace, James Gandolfini, Erin Darke, Elizabeth Rodriguez, Matthias Schoenaerts, James Frecheville, Jeremy Bobb, Chris Sullivan, John Ortiz, Patricia Squire, James Colby, Morgan Spector, Michael Esper, Michael Aronov
Calificación: No recomendada para menores de 16 años
Género: Thriller. Drama | Crimen. Mafia

Formato: Matroska BDRip microHD 1080p
Tamaño: 4,49GIB
Resolución: 1920x800
Audio 1: AC3 5.1 @448 Kbps Castellano
Audio 2: AC3 5.1 @448 Kbps Inglés
Subs: Español de España e Ingles. Español de España Forzados.
Descomprimir: WinRar

MEDIA INFO

Format : Matroska
Format version : Version 2
File size : 4.49 GiB
Duration : 1h 46mn
Overall bit rate : 6 019 Kbps
Encoded date : UTC 2015-01-16 09:41:38
Writing application : mkvmerge v4.6.0 ('Still Crazy After All These Years') creado el Mar 10 2011 02:50:32
Writing library : libebml v1.2.0 + libmatroska v1.1.0

Video
ID : 1
Format : AVC
Format/Info : Advanced Video Codec
Format profile : High@L4.1
Format settings, CABAC : Yes
Format settings, ReFrames : 5 frames
Codec ID : V_MPEG4/ISO/AVC
Duration : 1h 46mn
Bit rate : 5 130 Kbps
Width : 1 920 pixels
Height : 800 pixels
Display aspect ratio : 2.40:1
Frame rate mode : Constant
Frame rate : 23.976 fps
Color space : YUV
Chroma subsampling : 4:2:0
Bit depth : 8 bits
Scan type : Progressive
Bits/(Pixel*Frame) : 0.139
Stream size : 3.73 GiB (83%)
Writing library : x264 core 142 r2479 dd79a61
Encoding settings : cabac=1 / ref=5 / deblock=1:-3:-3 / analyse=0x3:0x113 / me=umh / subme=10 / psy=1 / psy_rd=1.00:0.00 / mixed_ref=1 / me_range=16 / chroma_me=1 / trellis=2 / 8x8dct=1 / cqm=0 / deadzone=21,11 / fast_pskip=1 / chroma_qp_offset=-2 / threads=12 / lookahead_threads=1 / sliced_threads=0 / nr=0 / decimate=1 / interlaced=0 / bluray_compat=0 / constrained_intra=0 / bframes=3 / b_pyramid=2 / b_adapt=1 / b_bias=0 / direct=1 / weightb=1 / open_gop=0 / weightp=2 / keyint=250 / keyint_min=23 / scenecut=40 / intra_refresh=0 / rc=2pass / mbtree=0 / bitrate=5130 / ratetol=1.0 / qcomp=0.60 / qpmin=0 / qpmax=69 / qpstep=4 / cplxblur=20.0 / qblur=0.5 / ip_ratio=1.40 / pb_ratio=1.30 / aq=1:0.80
Language : English
Default : Yes
Forced : No

Audio #1
ID : 2
Format : AC-3
Format/Info : Audio Coding 3
Mode extension : CM (complete main)
Format settings, Endianness : Big
Codec ID : A_AC3
Duration : 1h 46mn
Bit rate mode : Constant
Bit rate : 448 Kbps
Channel(s) : 6 channels
Channel positions : Front: L C R, Side: L R, LFE
Sampling rate : 48.0 KHz
Bit depth : 16 bits
Compression mode : Lossy
Delay relative to video : 1s 400ms
Stream size : 342 MiB (7%)
Language : Spanish
Default : Yes
Forced : Yes

Audio #2
ID : 3
Format : AC-3
Format/Info : Audio Coding 3
Mode extension : CM (complete main)
Format settings, Endianness : Big
Codec ID : A_AC3
Duration : 1h 46mn
Bit rate mode : Constant
Bit rate : 448 Kbps
Channel(s) : 6 channels
Channel positions : Front: L C R, Side: L R, LFE
Sampling rate : 48.0 KHz
Bit depth : 16 bits
Compression mode : Lossy
Stream size : 342 MiB (7%)
Language : English
Default : No
Forced : No

Text #1
ID : 4
Format : UTF-8
Codec ID : S_TEXT/UTF8
Codec ID/Info : UTF-8 Plain Text
Title : Forzados
Language : Spanish
Default : Yes
Forced : Yes

Text #2
ID : 5
Format : UTF-8
Codec ID : S_TEXT/UTF8
Codec ID/Info : UTF-8 Plain Text
Language : Spanish
Default : No
Forced : No

Text #3
ID : 6
Format : UTF-8
Codec ID : S_TEXT/UTF8
Codec ID/Info : UTF-8 Plain Text
Language : English
Default : No
Forced : No

Menu
00:00:00.000 : en:Chapter 1
00:02:25.354 : en:Chapter 2
00:05:59.859 : en:Chapter 3
00:08:09.155 : en:Chapter 4
00:11:34.777 : en:Chapter 5
00:13:48.745 : en:Chapter 6
00:17:28.923 : en:Chapter 7
00:21:37.213 : en:Chapter 8
00:25:40.831 : en:Chapter 9
00:27:53.463 : en:Chapter 10
00:32:02.337 : en:Chapter 11
00:36:19.552 : en:Chapter 12
00:38:15.752 : en:Chapter 13
00:40:35.141 : en:Chapter 14
00:44:05.476 : en:Chapter 15
00:46:47.471 : en:Chapter 16
00:48:42.711 : en:Chapter 17
00:52:50.584 : en:Chapter 18
00:56:28.176 : en:Chapter 19
01:01:40.530 : en:Chapter 20
01:05:43.106 : en:Chapter 21
01:07:36.803 : en:Chapter 22
01:11:13.519 : en:Chapter 23
01:12:32.598 : en:Chapter 24
01:15:09.505 : en:Chapter 25
01:21:11.742 : en:Chapter 26
01:24:10.087 : en:Chapter 27
01:28:27.260 : en:Chapter 28
01:30:51.404 : en:Chapter 29
01:34:54.480 : en:Chapter 30
01:39:00.893 : en:Chapter 31
01:41:16.237 : en:Chapter 32












1 Link



http://uploaded.net/file/3wcnyqdd/Entr3g4.BDR.m1080p.flash.rar



Links Por Partes



http://uploaded.net/file/liluh715/Entr3g4.BDR.m1080p-flash.part1.rar
Para poder ver los links necesitas estar Registrado . O.. ya tienes cuenta? Logueate!

Para poder ver los links necesitas estar Registrado . O.. ya tienes cuenta? Logueate!

Para poder ver los links necesitas estar Registrado . O.. ya tienes cuenta? Logueate!

Para poder ver los links necesitas estar Registrado . O.. ya tienes cuenta? Logueate!

Para poder ver los links necesitas estar Registrado . O.. ya tienes cuenta? Logueate!



[size=2]Mixto - Uptobox, 1Fichier (Uploaded 110 MB Aproximadamente)[/size]


[img]http://istoreimg.com/upload/big/2014/10/14/543c6afa0797a.png[/img] [img]http://istoreimg.com/upload/big/2014/10/14/543c6af974999.png[/img]

[code]http://uptobox.com/scjr6681qebg
Para poder ver los links necesitas estar Registrado . O.. ya tienes cuenta? Logueate!

Para poder ver los links necesitas estar Registrado . O.. ya tienes cuenta? Logueate!

Para poder ver los links necesitas estar Registrado . O.. ya tienes cuenta? Logueate!

Para poder ver los links necesitas estar Registrado . O.. ya tienes cuenta? Logueate!

Para poder ver los links necesitas estar Registrado . O.. ya tienes cuenta? Logueate!




[img]http://istoreimg.com/upload/big/2014/10/14/543c6af53f66d.png[/img] [img]http://istoreimg.com/upload/big/2014/10/14/543c6af974999.png[/img]

[code]https://1fichier.com/?id24uzwxqv
Para poder ver los links necesitas estar Registrado . O.. ya tienes cuenta? Logueate!

Para poder ver los links necesitas estar Registrado . O.. ya tienes cuenta? Logueate!

Para poder ver los links necesitas estar Registrado . O.. ya tienes cuenta? Logueate!

Para poder ver los links necesitas estar Registrado . O.. ya tienes cuenta? Logueate!

Para poder ver los links necesitas estar Registrado . O.. ya tienes cuenta? Logueate!




[size=4]Respaldo Por Si Los Links De Arriba Son Eliminados, Siempre Activos[/size]

[img]http://istoreimg.com/upload/big/2014/10/14/543c6afa0797a.png[/img] [img]http://istoreimg.com/upload/big/2014/10/14/543c6af974999.png[/img]

[code]http://www.relink.us/f/1596026fca947c7fd43a6de775d985




Opciones
Estadísticas
Creado 16.01.2015 a las 16:23 hs
Categoría TV, Peliculas y series
  • 4
    Medallas
  • 0
    Favoritos
  • 310
    Visitas
  • 0
    Puntos
  • 0
    Seguidores

Para poder comentar necesitas estar Registrado. O.. ya tienes usuario? Logueate!
Autor del post
Ver perfil de flash flash
Hombre Bronze Member  Mensaje
290 75 0
Medallas
4
Recibenos en tu Correo!
rss

Tags
Posts relacionados